FACEBOOK CHANGE NAME & USERNAME

Unknown Reply 2:43 AM





      Nowadays, most of the facebook users had their change username reach it limits as well with their name. This tutorial will give you a solution for this problem. 

HOW TO CHANGE NAME AFTER LIMIT?


  1. Go to this page: Click here
  2. Fill all the forms 
  3. In the ID Picture, just upload any photo (I recommend to use deceiving photo)
  4. Then wait for 24 hours and then your name will be changed! ;)

HOW TO CHANGE USERNAME AFTER LIMIT?

  1. Create a page (any type of page)
  2. Skip all steps
  3. Then like the page first then go to "Edit Page" and click "Update Page Info"
  4. Click "Facebook Web Address" then click "Change Web Address"
  5. You'll be prompt in a new page; then
  6. Go to your profile and copy your current username
  7. Paste it in the Facebook Web Address blank text box
  8. Click "Check Availability!" then a pop-up will show, click "Confirm"
  9.  Congratulations! You're username has been reset! 
  10. After, delete the page you Created!
  11. Change your username here: Click here
*Just Skip the Ads

Source: Razer@PV 
Modified By: GPX

EKSTRA FREE DOWNLOAD [TORRENT]

Unknown Reply 6:04 PM


Ekstra (2013) DVDRip 720p @ pinoy-pirates.com



GENERAL INFO

Genre  : Drama | Comedy
File Size  : 1.50 GB
Quality  : DVDRip 720p
Resolution  : 1280*720
Frame Rate  : 23.976 fps
Country  : Philippines
Language  : Filipino | English
Run Time  : 1hr 53mn
IMDb Link  : Ekstra (2013)
IMDb Rating  : 7.8/10
MTRCB Rating  : PG
Source  : DVD5
Encoder  : LaSeR



PLOT

A socio-realist drama-comedy film, it follows a seemingly usual day in the life of Loida Malabanan as she embarks on yet another shooting day of a soap opera as an extra. As the shoot goes on, we get a glimpse of the truth in the ruling system of the production as well as the exploitation of the marginalized laborers like her.



CAST

Vilma Santos  : Loida Malabanan
Marlon Rivera  : Director
Vincent de Jesus  : Assistant Director
Ruby Ruiz  : Josie
Tart Carlos  : Venus
Piolo Pascual  : Himself / Brando
Marian Rivera  : Herself / Belinda
Cherie Gil  : Herself / Doña Beatriz
Pilar Pilapil  : Ms. Amanda / Doña Esmeralda
Tom Rodriguez  : Himself / Rafael
Eula Valdez  : Herself
Cherry Pie Picache  : Herself / Ma'am Amelia
Richard Yap  : Himself / Sir Richard


PLEASE SEED THIS TORRENT!

DOWNLOAD LINK: LINK

src: sharemaniax

BASEMENT FREE DOWNLOAD [TORRENT]

Unknown Reply 6:03 PM



Basement - Sino Ang Killer Sa Basement 2013 CAMRip @ pinoy-pirates.com


General
Complete name : Basement - Sino Ang Killer Sa Basement 2013 CAMRip @ pinoy-pirates.com.avi
Format : AVI
Format/Info : Audio Video Interleave
File size : 757 MiB
Duration : 1h 15mn
Overall bit rate : 1 403 Kbps

Video
ID : 0
Format : AVC
Format/Info : Advanced Video Codec
Format profile : Main@L5.1
Format settings, CABAC : Yes
Format settings, ReFrames : 1 frame
Codec ID : H264
Duration : 1h 15mn
Bit rate : 1 201 Kbps
Width : 640 pixels
Height : 480 pixels
Display aspect ratio : 4:3
Frame rate : 25.000 fps
Color space : YUV
Chroma subsampling : 4:2:0
Bit depth : 8 bits
Scan type : Progressive
Bits/(Pixel*Frame) : 0.156
Stream size : 648 MiB (86%)

Audio
ID : 1
Format : MPEG Audio
Format version : Version 1
Format profile : Layer 3
Codec ID : 55
Codec ID/Hint : MP3
Duration : 1h 15mn
Bit rate mode : Constant
Bit rate : 192 Kbps
Channel(s) : 2 channels
Sampling rate : 44.1 KHz
Compression mode : Lossy
Stream size : 104 MiB (14%)
Alignment : Split accross interleaves
Interleave, duration : 40 ms (1.00 video frame)
Interleave, preload duration : 390 ms
Writing library : LAMELAME_MAJOR_VERSI




Plot

A group of people gets stuck in a basement parking for the night. At the onset, some are irritated and just can’t wait to go home, while some don’t even give a damn, knowing they can easily come out the next day. But when the power is shut off and as it gets close to midnight, strange things start to happen.




Cast

Betong Sumaya as Bernard
Alvin Aragon
Carl Acosta as GJ
Chynna Ortaleza as Angela
Dex Quindoza
Dion Ignacio as Mendoza
Ellen Adarna as the victim
Enzo Pineda as Jules
Jan Manual as Migs
Kevin Santos as Mang Mario
Kristofer Martin as Macoy
Louise delos Reyes as Roxy
Mona Louise Rey as Anna
Pilita Corrales as Lola Meding
RJ Padilla as Dondie
Sarah Lahbati as Eliza
Teejay Marquez as Ryan


PLEASE SEED THE TORRENT!

DOWNLOAD LINK: LINK

src: sharemaniax

THIRD EYE FILIPINO FILM FREE DOWNLOAD [TORRENT]

Unknown Reply 6:00 PM


Third Eye 2014 CAMRip @ pinoy-pirates.com



General
Complete name : Third Eye 2014 CAMRip @ pinoy-pirates.com.avi
Format : AVI
Format/Info : Audio Video Interleave
File size : 857 MiB
Duration : 1h 25mn
Overall bit rate : 1 402 Kbps

Video
ID : 0
Format : AVC
Format/Info : Advanced Video Codec
Format profile : Main@L5.1
Format settings, CABAC : Yes
Format settings, ReFrames : 1 frame
Codec ID : H264
Duration : 1h 25mn
Bit rate : 1 200 Kbps
Width : 640 pixels
Height : 480 pixels
Display aspect ratio : 4:3
Frame rate : 25.000 fps
Color space : YUV
Chroma subsampling : 4:2:0
Bit depth : 8 bits
Scan type : Progressive
Bits/(Pixel*Frame) : 0.156
Stream size : 734 MiB (86%)

Audio
ID : 1
Format : MPEG Audio
Format version : Version 1
Format profile : Layer 3
Codec ID : 55
Codec ID/Hint : MP3
Duration : 1h 25mn
Bit rate mode : Constant
Bit rate : 192 Kbps
Channel(s) : 2 channels
Sampling rate : 44.1 KHz
Compression mode : Lossy
Stream size : 117 MiB (14%)
Alignment : Split accross interleaves
Interleave, duration : 40 ms (1.00 video frame)
Interleave, preload duration : 390 ms
Writing library : LAMELAME_MAJOR_VERSI


PLEASE SEED THIS TORRENT!

DOWNLOAD LINK: LINK

src: sharemaniax

TUHOG FREE DOWNLOAD [TORRENT]

Unknown Reply 5:59 PM


Tuhog (2013) DVDRip 720p @ pinoy-pirates.com



GENERAL INFO

Genre  : Comedy | Drama
File Size  : 1.49 GB
Quality  : 720p
Resolution  : 1280*720
Frame Rate  : 30.000 fps
Country  : Philippines
Language  : Filipino
Run Time  : 1hr 46mn
IMDb Link  : Tuhog (2013)
IMDb Rating  : 6.8/10
MTRCB Rating  : R-13
Source  : DVD5
Encoder  : LaSeR



PLOT

The movie begins with a bus accident, which results in three people getting impaled on a metal pole. From there, the movie tells the stories of these people, fleshing out the months leading up to the accident. Tonio (Leo Martinez) is retired, and he feels that his family no longer appreciates him. Out of this frustration, he makes the rash decision to follow his lifelong dream of opening a bakery. Fiesta (Eugene Domingo) is a surly bus conductors feared by all the drivers in the company. Her latest driver is Nato (Jake Cuenca), who intrudes into her life and decides to woo her. College student Caloy (Enchong Dee) is in a long-distance relationship with Angel (Empress). The two are virgins, and are raring to have sex with each other, but the distance is putting a strain on both of them.



CAST

Eugene Domingo : Fiesta Dacanay
Leo Martinez  : Tonio Sucat
Enchong Dee  : Caloy Sicat
Empress Schuck  : Angel
Jake Cuenca  : Renato 'Nato' Timbangkaya
Manuel Chua  : Bobby
Nikki Valdez  : Faith
Kitkat  : Rochelle
Beauty Gonzalez  : Jenna
Rodjun Cruz  : Mark
Joe Vargas  : Wayne
Dimples Romana  : Lolet
Eda Nolan  : Peachy
Noel Trinidad  : Carding
Bodjie Pascua  : Lando
Menggie Cobarrubias  : Bert
Carla Martinez  : Mercy
Jon Achaval  : John
Nor Domingo : Pugeda
Hyubs Azarcon : Boyet
Nico Antonio  : Adrian
Ariel Ureta  : Dr. Nuguid
Allyzon Lualhati  : Dr. Paz
Nicco Manalo  : Dr. Sanchez
Maliksi Morales  : Street Kid


PLEASE SEED THE TORRENT.

DOWNLOAD LINK: LINK

src: sharemaniax

BEKIKANG FREE DOWNLOAD [TORRENT]

Unknown Reply 5:58 PM


Bekikang: Ang Nanay Kong Beki (2013) DVDRip 720p @ pinoy-pirates.com

FREE LEECH & x2 UPLOAD CREDIT!
(chance to fix & boost your ratio)



GENERAL INFO

Genre  : Comedy
File Size  : 1.50 GB
Quality  : DVDRip 720p
Resolution  : 1280*720
Frame Rate  : 23.976 fps
Country  : Philippines
Language  : Filipino | English
Run Time  : 1hr 45mn
IMDb Link  : Bekikang: Ang Nanay Kong Beki (2013)
IMDb Rating  : 6.8/10
MTRCB Rating  : PG
Source  : DVD5
Encoder  : LaSeR



PLOT

Beki is in love with Fortunato. Unfortunately, Fortunato is in love with someone else, leaving Beki heartbroken when he suddenly leaves to be with Natalie, the girl that he got pregnant. But Fortunato shows up at Beki’s doorstep months later with a child in his arms. It turns out that Natalie left him to go to Japan, and he has to go abroad as well. He asks that Beki take care of his child. And despite everything that’s happened between them, Beki accepts. The real trouble starts seven years later, when Beki runs into Fortunato again. He’s reunited with Natalie, and when they see their child, they fight to get him back from Beki.



CAST

Joey Paras  : Bekikang
Tom Rodriguez  : Fortunato
Tirso Cruz III  : Gorio
Lassy  : Tomas
Atak  : Intoy
Nikki Valdez  : Samantha
Janice de Belen  : Maristella
Carla Humphries  : Natalie
Jm Ibañez  : Potpot
Malou de Guzman  : Anacleta
Maricar de Mesa  : Mariana
Miguel Aguila  : Mandy
Manuel Chua  : Dado
Rubi Rubi  : Lydia
Jeff Luna  : Lydia's Helper

PLEASE SEED THE TORRENT.

DOWNLOAD LINK: LINK

src: sharemaniax

MENOR DE EDAD FREE DOWNLOAD [TORRENT]

Unknown Reply 5:56 PM


Menor De Edad (2013) DVDRip 720p @ pinoy-pirates.com



GENERAL INFO

Genre  : Drama | Crime
File Size  : 1.49 GB
Quality  : DVDRip 720p
Resolution  : 1280*720
Frame Rate  : 23.976 fps
Country  : Philippines
Language  : Filipino
Run Time  : 1hr 30mn
IMDb Link  : Menor De Edad (2013)
IMDb Rating  : 5.3/10
MTRCB Rating  : R-13
Source  : DVD5
Encoder  : LaSeR



PLOT

Fifteen-year-old Jen (Meg Imperial) doesn’t have a very happy life. Her classmates make fun of her for being raised by lesbians. Her boyfriend broke up with her because she didn’t want to have sex. Her mother is constantly berating her. She seeks comfort in a violent gang of girls led by her cousin, and in the arms of her Filipino teacher Ariel (Wendell Ramos). She develops quite a crush on her teacher as he tries to help her through her issues. But things turn sour between them when he rejects her advances, and soon both are caught in lies that will change their lives forever.



CAST

Meg Imperial  : Jen
Ara Mina  : Edna
Wendell Ramos  : Ariel Basco
Chynna Ortaleza  : Nancy Molina
Almira Muhlach  : Laida
Jaycee Parker  : Jags
Jaime Pebanco  : Bebong
Mico Aytona  : Maki
Anna Luna  : Barbie
Jef Gaitan  : Ms. Dimayuga
Pio Balbuena  : TJ
Arvic Rivero  : Jimboy
Raquel Villavicencio  : Atty. Cobcobo
Tony Mabesa  : Principal Bermejo
Menggie Cobbarubias  : Atty. Icasas

PLEASE SEED THE TORRENT.

DOWNLOAD LINK: LINK

src: sharemaniax
Powered by Blogger.

Search

NOTE

If you want to share or use one of my posts on your blog site, please add credits leading to my blog website.

Simple Survey

Answer the survey, Click Me!

Askjeyci Archive

Popular Posts